<?xml version="1.0" standalone="no"?>
<!DOCTYPE svg PUBLIC "-//W3C//DTD SVG 1.1//EN" "http://www.w3.org/Graphics/SVG/1.1/DTD/svg11.dtd" >
<svg xmlns="http://www.w3.org/2000/svg">
<metadata>Generated by IcoMoon</metadata>
<defs>
<font id="iconfont-rheinfelderhof" horiz-adv-x="1024">
<font-face units-per-em="1024" ascent="960" descent="-64" />
<missing-glyph horiz-adv-x="1024" />
<glyph unicode="&#x20;" horiz-adv-x="512" d="" />
<glyph unicode="&#xe900;" glyph-name="alexander" d="M373.983 684.732c-8.597-16.166-29.173-29.677-43.084-36.504 8.114-22.376 13.91-3.081 24.392-26.548-41.103-1.517-143.596 7.301-173.301-7.253-10.529-22.424-10.529-372.527-0.483-394.904 34.003 27.117 11.978 37.547 22.943 77.606 12.027-2.56 3.429 1.564 22.556-17.683 0.966-1.043 2.898-3.129 4.299-4.646 10.964 25.505 43.567 48.403 57.96 74.477-9.612 14.507-23.957 18.726-20.624 43.757 4.83 31.241 22.508 12.99 26.855 46.317-10.095 14.080-16.325 14.080-34.535 23.988-2.367 47.929 12.51 45.843 52.695 46.839 27.773 0.569 73.754 5.262 93.413-6.21-1.497-1.043-3.381 0-4.299-2.086-1.932-4.693-29.27-4.172-43.132-10.951 6.714-48.403 9.563 10.951 120.171-72.913 42.118-32.332 70.856-68.741 91.964-72.913 6.665-1.090 9.563 0.996 15.311-2.655 14.876-48.972-20.624-104.723 42.166-158.341 60.327-51.532 92.881-24.462 165.187-14.554-7.68-94.293-74.72-189.63-75.203-228.219 56.511-8.818 31.154 21.902 63.708 38.59 0.918-1.564 1.401-2.086 1.932-4.693l10.046-32.853 69.407-1.517c-5.748 71.87-22.025 48.403 24.923 90.643-2.898 10.904-56.511 68.741-14.393 162.465 6.231 13.606 19.223 40.676 8.163 52.67-45.016 21.333-167.119-9.908-146.543 101.547 43.084-8.296 64.191-49.493 125.919-31.241-7.631 23.419-11.93 10.43-20.528 37.499l25.841 30.767c-34.003 3.65-97.711-2.086-124.035 3.65-22.991 4.646-166.153 192.711-173.349 210.963 10.529 26.596 35.935 44.279 52.647 87.514 14.393 36.978 16.808 86.471 30.671 121.363 19.61 13.037 35.452 6.779 48.88 30.246-23.522 17.683-34.969 7.253-56.511 19.247 9.563 23.419 131.666 16.166 179.049-133.879 18.692-59.923 21.542-177.067 20.141-247.467-0.483-37.499-12.944-59.354 12.896-68.741 15.359 20.338 5.796 18.252 11.544 48.972 5.748 30.767 12.461 21.333 24.44 45.843-5.313 24.984-13.959 20.812-15.891 40.154-2.318 20.243 8.646 24.415 17.291 43.757-7.197 29.677-9.563 10.904-16.277 36.409-5.265 20.338 1.401 23.467 7.148 34.892 28.739 52.101-11.978 27.117-12.413 70.921-0.966 35.887 9.563 13.985 12.413 40.581 2.898 27.070-9.080 18.252-23.957 28.681-36.37 24.462-0.918 43.71-16.277 78.127-22.46 10.43-23.957-5.736-55.014 3.65-29.222 23.941-2.415 32.284-32.071 49.446-32.603 22.424-37.867-30.199-87.665 4.741-33.52 23.419-41.635 14.554-108.724 14.080-38.737 0-77.522 0-116.307 0.474-88.148 1.043-28.304-41.671-22.073-59.876-21.059-1.612-44.533 3.081-57.429 16.119-22.508 22.945-0.483 34.37-30.188 40.628-20.576-34.37 15.842-76.089 83.318-82.252l-7.148-5.262c-0.531-0.521-11.978 1.090-10.046-23.419 10.964-7.822 20.093-7.822 38.302-9.908 3.333-18.252-1.932-50.536 15.794-45.321 17.678 5.215 11.93 34.418 19.127 52.575 19.658-8.296 14.828-14.554 35.452-25.505 32.554-17.161 27.29 2.086 46.465-6.732-13.91-30.767-19.658 0-54.628-16.687-11.93-5.736-101.044-84.385-130.266-100.030l0.966 1.564zM572.748 920.707v0.521c-3.381-34.892-48.397-38.021-56.511 4.172 26.324-6.21 9.563-2.607 30.622-15.597 17.243 11.425 7.197 11.947 25.889 10.904zM437.706 182.005l0.483-0.521c-22.025 25.553-50.763 33.896-58.926 78.175-24.923 137.007 128.334 172.421 185.811 51.058-8.114-10.999-34.486-25.505-27.773-68.788 6.665-43.188 43.567-33.327 39.751-60.444-14.393-28.113-50.763-24.984-78.536-68.741-49.797-78.649-8.163-88.557-28.739-109.89-15.311-12.516-1.449-1.612-21.542-2.655-38.785-2.086-32.554-10.904-42.118-55.751l-73.803-0.474c3.381 21.381 7.728 17.209 8.646 33.849-40.717 6.258-10.529-41.719-93.413-32.284 4.347 41.15 179.097 184.936 190.158 236.468zM373.983 684.732h-0.483c-25.358 3.65-13.379-6.258-25.358 24.51-17.678 46.886-21.542 45.321-70.856 56.747-10.046 69.31 17.195 42.714-41.635 61.487-21.107 6.732-40.234 37.547-48.88 51.579l18.209 7.822c9.080 3.081 2.415-3.176 15.311 4.646-16.277 30.767-70.856 2.086-88.631 56.273 26.372 3.129 93.896 4.693 120.267 2.086 30.139-3.129 51.198-38.542 69.89-57.268 20.576-20.907 109.641-117.239 118.239-136.486-27.773-34.892-32.554-31.81-52.647-54.234-10.095-10.382-6.231-5.167-13.427-17.161zM692.417 803.483l0.531 0.569c14.345 9.908 47.382 40.059 59.313 8.344 7.68-19.295-4.299-20.338 14.393-37.547 12.461-11.473 12.461-1.564 30.188-18.204-3.333-32.332-16.808-20.338-11.978-50.584 4.299-26.027 14.393-13.511 22.508-40.059-7.197-15.644-20.624-25.505-19.61-44.847 0.918-19.769 10.481-19.769 18.161-39.064-6.182-18.252-17.726-23.419-18.692-40.107-1.401-23.419 9.612-15.076 16.325-43.71-14.393-29.724-16.808-2.086-23.957-39.585-5.748-29.25 6.231-30.246-12.461-46.412-20.093 10.43-7.197-10.904-13.862 21.333-1.014 5.262 0 25.553 0.483 32.332 12.413 281.79-46.030 285.44-61.341 337.541z" />
<glyph unicode="&#xe901;" glyph-name="alfa" d="M99.217 361.803v14.34c42.325 91.555 74.755 192.998 172.28 229.425-157.762-129.855-175.949-618.102 71.781-659.594h-100.493c-144.572 32.54-181.408 248.875-143.569 415.831zM831.407 189.738c-4.57-30.116-2.17-124.204 28.712-71.696 48.27-44.302-76.068-107.451-100.496-43.016v28.676c4.794 61.332 74.248 224.756-14.357 243.761 6.185 32.063 70.753 5.809 100.499 14.34-17.18-40.197-15.789-98.942-14.357-157.729v-14.337zM860.119 935.362c19.41 4.511 27.419 20.41 57.427 14.34-30.623-71.649-55.809-153.331-86.142-229.425-30.188-75.731-56.162-165.125-114.85-215.085-0.814 8.748-2.148 16.977-14.357 14.34 14.487 28.547 24.82 61.247 57.427 71.696-21.107 114.003 86.64 217.806 100.496 344.134zM817.049 447.838c7.523 111.975 63.363 175.697 86.139 272.438-4.614-57.781 10.090-258.422-86.139-272.438zM486.847 404.821c23.627 119.189-76.531 114.75-114.854 172.068h100.496c33.948-37.667 114.538-149.579 43.069-200.748h-28.712v28.68zM601.7 347.465c-0.227-42.789-37.326-48.753-43.069-86.036-20.208-66.145-124.392-123.911-114.854-172.065 99.111 77.423 310.566 330.597 186.638 415.83-83.697-38.905 49.138-129.562-28.715-157.729z" />
<glyph unicode="&#xe902;" glyph-name="arrow-down" d="M998.4 694.489l-486.4-502.489-486.4 512h243.2l243.2-263.133 243.2 252.037z" />
<glyph unicode="&#xe903;" glyph-name="arrow-left" d="M758.273-37.973l-502.049 485.973 511.551 485.973v-242.987l-262.902-242.987 251.816-242.987z" />
<glyph unicode="&#xe904;" glyph-name="arrow-right" d="M265.726 933.973l502.049-485.973-511.551-485.973v242.987l262.902 242.987-251.816 242.987z" />
<glyph unicode="&#xe905;" glyph-name="arrow-up" d="M25.6 201.511l486.4 502.489 486.4-512h-243.2l-243.2 263.133-243.2-252.037z" />
<glyph unicode="&#xe906;" glyph-name="bca" d="M350.435 515.441c12.739 13.76 27.441 25.469 44.104 35.128 33.274 19.287 72.44 28.93 117.5 28.93 42.455 0 80.172-6.893 113.154-20.68l87.344 249.909h125.396l171.386-488.477h-110.507l-35.071 115.797h-176.349l-35.071-115.797h-110.507l66.452 190.133c-32.284 14.212-64.568 21.318-96.852 21.318-50.276 0-89.963-16.823-119.065-50.471s-43.652-79.715-43.652-138.205c0-60.167 14.029-106.654 42.087-139.463s68.059-49.213 120.004-49.213c31.918 0 68.32 5.765 109.208 17.295v-46.855c-31.709-11.95-70.823-17.924-117.344-17.924-67.382 0-119.378 20.545-155.989 61.634s-54.917 99.474-54.917 175.154c0 1.077 0.005 2.152 0.014 3.223-29.382-16.42-66.308-24.63-110.778-24.63h-180.981v486.48h150.541c68.599 0 118.393-9.816 149.383-29.448s46.486-50.855 46.486-93.669c0-29.060-6.783-52.907-20.348-71.541s-31.597-29.837-54.096-33.608v-3.327c30.66-6.877 52.772-19.743 66.337-38.599 4.944-6.873 8.988-14.571 12.13-23.094zM839.256 522.562c-32.424 104.928-50.677 164.267-54.757 178.021s-7.003 24.623-8.768 32.609c-7.279-28.395-28.123-98.604-62.533-210.631h126.058zM102.567 534.209v-126.778h66.834c28.234 0 49.078 5.435 62.533 16.305s20.182 27.507 20.182 49.912c0 40.374-28.674 60.56-86.024 60.56h-63.525zM102.567 616.065h59.555c27.792 0 47.92 4.326 60.382 12.977s18.694 22.96 18.694 42.925c0 18.634-6.783 31.999-20.348 40.096s-35.016 12.145-64.352 12.145h-53.93v-108.144z" />
<glyph unicode="&#xe907;" glyph-name="close" d="M158.356-29.704l353.634 353.634 353.644-353.644 124.079 124.079-353.644 353.644 353.634 353.634-124.061 124.061-353.634-353.634-353.644 353.644-124.079-124.079 353.644-353.644-353.634-353.634z" />
<glyph unicode="&#xe908;" glyph-name="facebook" d="M575.173-63.413v466.825h156.691l23.462 181.933h-180.153v116.153c0 52.674 14.626 88.567 90.155 88.567l96.336 0.042v162.723c-16.655 2.218-73.841 7.171-140.378 7.171-138.897 0-233.99-84.784-233.99-240.485v-134.17h-157.094v-181.933h157.094v-466.828h187.876z" />
<glyph unicode="&#xe909;" glyph-name="fax" d="M839.68 218.435v-208.696c0-23.040-18.35-41.739-40.96-41.739h-573.44c-22.61 0-40.96 18.699-40.96 41.739v208.696h-143.36c-22.61 0-40.96 18.699-40.96 41.739v459.13c0 23.040 18.35 41.739 40.96 41.739h942.080c22.61 0 40.96-18.699 40.96-41.739v-459.13c0-23.040-18.35-41.739-40.96-41.739h-143.36zM266.24 218.435v-166.957h491.52v417.391h-491.52v-250.435zM819.2 844.522h-614.4v41.739c0 23.040 18.35 41.739 40.96 41.739h532.48c22.61 0 40.96-18.699 40.96-41.739v-41.739z" />
<glyph unicode="&#xe90a;" glyph-name="google" d="M548.066 377.254l-48.218 37.447c-14.685 12.179-34.769 28.258-34.769 57.683 0 29.549 20.084 48.342 37.516 65.734 56.158 44.213 112.294 91.271 112.294 190.427 0 101.972-64.159 155.61-94.91 181.058h82.917l87.018 54.68h-263.644c-72.347 0-176.605-17.115-252.935-80.128-57.531-49.633-85.589-118.072-85.589-179.677 0-104.582 80.301-210.6 222.102-210.6 13.387 0 28.037 1.305 42.784 2.686-6.621-16.114-13.318-29.515-13.318-52.298 0-41.535 21.341-66.996 40.154-91.126-60.251-4.15-172.731-10.825-255.642-61.791-78.968-46.961-103.001-115.297-103.001-163.556 0-99.294 93.591-191.787 287.663-191.787 230.138 0 351.974 127.345 351.974 253.405 0.021 92.611-53.485 138.204-112.391 187.824zM372.78 531.449c-115.131 0-167.284 148.83-167.284 238.637 0 34.976 6.621 71.063 29.391 99.259 21.465 26.85 58.85 44.275 93.75 44.275 110.989 0 168.555-150.163 168.555-246.749 0-24.164-2.665-66.983-33.436-97.94-21.526-21.478-57.538-37.482-90.981-37.482zM374.099-7.796c-143.168 0-235.489 68.481-235.489 163.708 0 95.192 85.603 127.393 115.056 138.059 56.171 18.91 128.456 21.534 140.517 21.534 13.38 0 20.070 0 30.723-1.346 101.779-72.417 145.951-108.531 145.951-177.102 0-83.021-68.267-144.86-196.758-144.86zM886.005 533.493v134.076h-66.231v-134.076h-133.855v-66.962h133.855v-134.898h66.231v134.898h134.525v66.962z" />
<glyph unicode="&#xe90b;" glyph-name="instagram" d="M511.193 958.387c-138.832 0-156.24-0.585-210.763-3.076-54.413-2.485-91.573-11.125-124.085-23.76-33.617-13.063-62.126-30.543-90.544-58.962s-45.899-56.929-58.96-90.544c-12.642-32.517-21.282-69.677-23.763-124.088-2.489-54.523-3.076-71.929-3.076-210.76 0-138.836 0.587-156.242 3.076-210.765 2.48-54.411 11.121-91.571 23.763-124.088 13.061-33.615 30.541-62.126 58.96-90.544s56.927-45.899 90.544-58.962c32.513-12.635 69.672-21.275 124.085-23.76 54.523-2.487 71.931-3.076 210.763-3.076s156.242 0.589 210.765 3.076c54.411 2.485 91.571 11.125 124.085 23.76 33.617 13.063 62.123 30.543 90.542 58.962s45.899 56.929 58.962 90.544c12.64 32.517 21.28 69.677 23.763 124.088 2.489 54.523 3.074 71.929 3.074 210.765 0 138.832-0.585 156.237-3.074 210.76-2.483 54.411-11.123 91.571-23.763 124.088-13.063 33.615-30.543 62.126-58.962 90.544s-56.925 45.899-90.542 58.962c-32.515 12.635-69.675 21.275-124.085 23.76-54.523 2.492-71.933 3.076-210.765 3.076zM511.193 866.28c136.494 0 152.659-0.52 206.566-2.978 49.84-2.274 76.908-10.605 94.921-17.603 23.863-9.274 40.893-20.352 58.778-38.24 17.892-17.89 28.97-34.917 38.24-58.778 6.998-18.013 15.329-45.083 17.603-94.921 2.458-53.907 2.98-70.071 2.98-206.566 0-136.499-0.522-152.663-2.98-206.566-2.274-49.842-10.605-76.912-17.603-94.925-9.27-23.859-20.348-40.888-38.24-58.778-17.885-17.888-34.915-28.966-58.778-38.238-18.013-7-45.081-15.331-94.921-17.601-53.898-2.463-70.060-2.98-206.566-2.98s-152.668 0.518-206.566 2.98c-49.838 2.27-76.908 10.601-94.921 17.601-23.861 9.272-40.891 20.35-58.778 38.238-17.885 17.89-28.963 34.919-38.238 58.778-7 18.013-15.329 45.083-17.605 94.925-2.456 53.902-2.978 70.067-2.978 206.566 0 136.494 0.522 152.659 2.978 206.566 2.277 49.838 10.605 76.908 17.605 94.921 9.274 23.861 20.352 40.888 38.238 58.778 17.888 17.888 34.917 28.966 58.778 38.24 18.013 6.998 45.083 15.329 94.921 17.603 53.907 2.458 70.071 2.978 206.566 2.978zM511.193 276.797c-94.107 0-170.399 76.289-170.399 170.399 0 94.107 76.291 170.396 170.399 170.396 94.109 0 170.399-76.289 170.399-170.396 0-94.109-76.289-170.399-170.399-170.399zM511.193 709.698c-144.976 0-262.503-117.529-262.503-262.503 0-144.98 117.527-262.505 262.503-262.505s262.503 117.525 262.503 262.505c0 144.973-117.527 262.503-262.503 262.503zM845.414 720.070c0-33.877-27.464-61.344-61.344-61.344-33.877 0-61.344 27.467-61.344 61.344 0 33.879 27.467 61.344 61.344 61.344 33.879 0 61.344-27.464 61.344-61.344z" />
<glyph unicode="&#xe90c;" glyph-name="mail" d="M520.387 959.982c-52.007 0-99.065-1.734-141.23-4.496-41.856-2.764-78.571-6.906-110.117-12.586-31.861-5.831-61.167-14.426-86.938-25.479-26.236-11.357-49.249-25.39-69.24-41.965-20.149-16.883-37.636-37.641-52.161-62.35-14.368-24.557-25.873-53.056-34.775-85.133-17.336-63.079-25.927-147.411-25.927-252.697 0-56.018 1.093-106.557 4.262-151.681 2.968-45.121 7.325-84.493 13.417-118.105 5.934-34.072 14.696-64.568 25.62-91.427 11.247-27.011 24.635-50.798 40.878-70.443 16.553-19.952 36.663-36.841 60.089-50.959 23.429-13.814 50.238-24.695 80.227-32.675 29.67-7.981 64.494-14.151 104.319-17.984 39.514-3.991 84.41-6 133.605-6 51.539 0 97.857 0.921 139.401 2.395 40.607 1.38 75.131 3.819 103.711 6.891 28.734 3.069 54.379 7.352 76.868 13.183 22.803 5.831 42.326 12.83 58.567 21.582 16.399 8.595 31.267 19.777 44.23 32.975 8.59 8.747 15.258 17.323 21.353 26.378 5.308 8.135 6.776 17.018 3.966 26.38-2.5 9.209-8.48 16.24-17.386 20.384l-64.363 29.676c-13.429 6.292-28.594 2.809-38.434-8.088-2.656-2.764-5.419-5.326-8.543-8.087-5.778-4.912-11.884-9.363-18.608-12.894-7.027-3.53-14.883-6.83-23.79-9.592-9.060-2.761-19.573-4.757-30.503-6.292-11.558-1.689-24.827-3.115-39.351-4.19-15.15-1.226-31.328-2.24-48.194-2.7-17.962-0.612-40.239-0.766-67.412-0.921-22.647-0.16-54.7-0.322-96.086-0.322-41.856 0-78.564 1.719-110.425 5.096s-58.655 8.242-80.832 14.996c-21.554 6.446-40.205 15.195-55.822 25.777-15.15 10.437-27.381 22.598-36.907 36.872-9.528 14.887-17.553 31.928-23.487 50.959-6.092 19.185-10.167 40.521-12.512 63.85-2.498 24.095-4.545 54.599-5.794 91.126-1.249 35.759-1.827 79.156-1.827 129.497 0 44.816 0.94 83.893 3.359 117.505 2.184 33.458 5.841 61.664 10.37 84.533 4.217 21.947 10.481 41.432 18.911 57.855 8.123 16.115 18.328 29.724 30.198 40.466h0.328c11.87 10.898 26.729 19.766 44.535 26.979 18.116 7.367 39.545 12.954 63.751 16.487 24.989 3.836 55.739 6.69 91.817 8.687 36.234 1.843 78.322 2.7 126.894 2.7 50.134 0 93.115-0.921 128.723-2.103 35.92-1.38 65.637-3.238 89.375-6 22.803-2.61 42.764-6.754 59.786-12.586 16.711-5.525 30.553-12.692 41.485-21.282 10.933-8.442 19.966-19.182 27.147-32.074 7.341-13.199 13.027-29.251 16.779-47.364 7.653-38.061 11.292-96.18 11.292-174.76 0-36.988-0.623-68.778-1.827-95.024-1.247-26.703-2.826-48.604-5.482-65.948-2.342-16.73-5.715-30.914-9.462-41.965-3.28-10.129-7.687-17.726-11.902-22.482-8.588-9.362-21.545-14.382-39.349-14.382-8.279 0-15.274 1.228-20.743 2.992-4.687 1.535-8.482 3.684-11.292 6.6-3.438 3.684-6.2 7.567-8.231 11.096-1.719 3.684-3.343 7.413-3.966 11.096-0.782 4.911-1.658 12.080-2.437 21.283-0.782 8.287-1.814 19.746-2.747 34.173v322.843c0 17.651-14.682 32.074-32.335 32.074h-97.305c-17.962 0-32.638-14.427-32.638-32.074v-11.987c-6.871 7.214-13.853 13.369-21.353 18.585-8.902 6.139-18.233 11.449-27.759 15.286-9.681 4.145-19.884 6.999-30.503 8.993h-0.327c-10.463 1.844-21.527 3.27-33.553 4.19-12.34 0.921-25.599 1.23-39.656 1.23-30.609 0-57.713-3.146-81.137-9.592-24.208-6.6-44.454-16.623-61.008-29.976-16.399-13.199-29.645-28.368-40.263-45.863-10.465-17.19-18.193-36.373-22.877-57.554-4.687-20.412-8.028-43.614-10.373-69.245-2.184-25.63-3.357-53.976-3.357-85.131 0-29.774 1.251-57.117 3.657-82.135 2.182-25.171 5.839-47.662 10.368-66.847 4.997-20.26 13.024-38.294 23.487-54.256 10.777-16.116 24.022-29.851 40.263-41.668 16.555-11.664 36.807-20.547 60.704-26.379 23.424-5.677 50.232-8.395 80.529-8.395 23.896 0 46.044 1.871 66.193 5.402 20.304 3.53 38.513 8.979 54.602 16.187 16.553 7.674 31.273 18.854 43.923 32.974 5.31 5.832 10.729 12.569 15.258 19.783 2.968-6.753 6.169-13.199 10.074-18.884 9.995-14.58 22.963-25.614 38.736-32.674 14.527-6.754 31.436-12.063 50.333-15.285 18.583-3.070 39.274-4.79 61.921-4.79 21.865 0 41.976 1.38 60.091 4.19 18.43 2.915 34.445 7.060 48.501 12.891 14.68 5.986 27.641 14.46 39.044 24.583 11.4 10.129 21.31 22.45 29.588 36.57 8.12 13.966 15.116 30.291 20.741 48.861 5.622 18.265 9.839 39.030 13.119 62.051 3.28 22.715 5.606 49.055 7.325 79.137 1.563 30.388 2.437 64.038 2.437 100.718 0 45.891-1.595 87.267-4.872 124.102-3.436 36.834-8.543 68.32-15.258 95.024-6.871 27.472-16.641 51.821-28.978 72.541-12.496 21.332-27.937 39.078-46.365 53.657-18.116 14.58-39.83 26.902-64.973 36.572-24.522 9.516-52.791 16.97-84.493 21.881-31.079 5.065-68.234 8.641-111.337 11.096-43.419 2.456-92.515 3.898-147.332 3.898l-0.005-0.018zM507.268 621.254c21.551 0 39.466-2.287 53.99-6.892 13.743-4.297 24.375-10.898 32.030-19.486 7.965-8.749 13.93-20.485 17.996-35.372 4.373-15.656 6.715-34.852 6.715-56.953v-60.552c0-19.646-0.623-37.125-1.825-51.86-1.249-15.194-3.158-27.493-5.498-37.469-2.028-8.902-5.685-16.929-10.682-23.683-4.685-6.446-10.948-11.878-18.913-16.487h-0.325c-8.123-4.757-18.753-8.486-32.028-11.096-14.213-2.609-31.113-3.897-50.636-3.897-15.929 0-29.324 1.076-40.568 3.592-10.465 2.301-19.22 5.739-25.624 10.191-6.56 4.45-12.103 9.746-16.166 15.885-4.217 6.14-6.966 13.001-8.841 20.985-1.875 9.055-3.325 20.081-4.262 32.974-1.096 12.737-1.827 27.189-1.827 43.765v70.143c0 23.483 1.904 43.67 5.186 60.552 3.28 15.962 7.777 28.701 14.041 38.369v0.322c5.464 8.441 14.929 14.872 28.366 19.483 14.838 4.913 34.664 7.49 58.872 7.49v-0.004z" />
<glyph unicode="&#xe90d;" glyph-name="menue" d="M0 860.903h1022.445v-150.151h-1022.445v150.151zM0 523.066h1022.445v-150.132h-1022.445v150.132zM0 185.228h1022.445v-150.132h-1022.445v150.132z" />
<glyph unicode="&#xe90e;" glyph-name="phone" d="M249.63 513.729c105.18-168.034 175.301-235.253 350.602-336.071l140.241 134.428c71.618-17.538 162.028-41.612 234.595-41.328 24.189 0.185 48.28-23.002 48.932-45.151l-1.63-209.716c-0.1-23.193-24.385-46.474-49.035-47.889-604.262-1.022-953.581 333.828-973.218 914.166-2.006 22.424 22.283 45.706 46.471 45.802h239.622c26.457 0.98 50.549-22.113 56.29-36.217-6.134-78.651 28.657-174.59 47.373-243.639l-140.241-134.385z" />
<glyph unicode="&#xe90f;" glyph-name="position" d="M502.956 960c-170.325 0-308.396-138.075-308.396-308.4 0-257.546 307.292-715.641 308.396-715.6 1.311 0.049 308.4 462.125 308.4 715.6 0.004 170.325-138.075 308.4-308.4 308.4zM504.548 478.771c-95.739 0-173.338 77.608-173.338 173.342 0 95.73 77.604 173.342 173.338 173.342s173.338-77.604 173.338-173.342c0-95.73-77.6-173.342-173.338-173.342z" />
<glyph unicode="&#xe910;" glyph-name="rheinfelderhof" d="M398.456 406.31c0.71 11.518 0.17 28.133-0.791 48.459l-21.518-0.557h-27.457c-3.031-0.769-6.832-1.512-12.175-1.512-1.541 0-2.286 0-2.286 0.743l-12.2-1.512h-9.914c-1.515 0-2.26 0-2.26 0.769-1.541 0-2.312-0.769-2.312-0.769-1.515 0-4.572 0-7.603 0.769l-56.404-4.563v0.743l-0.771-3.025c-3.056 0.743-6.087 0.743-9.889 0.743-3.082-0.743-5.342-1.512-7.628-1.512l-5.342 0.769c-3.031-0.769-6.113-1.512-9.914-1.512 0 0.743-2.286 2.256-7.628 3.794 1.541 6.075 6.884 9.125 14.512 9.125 3.031-0.769 6.087-0.769 7.603-0.769v0.769l-3.056 5.306c0 0.769 2.286 3.050 6.858 7.613-1.515 0-2.286 0-2.286 0.769l-32.003-3.050c-15.257 0-22.859 2.281-22.859 8.382 3.031 2.281 4.572 3.794 4.572 4.563l12.2-0.769c0 1.538 1.515 1.538 4.572 2.281 4.572 0 11.43-0.743 19.803-1.512 15.257 2.281 25.145 3.794 29.743 3.794 3.031-0.769 6.062-0.769 7.603-0.769 1.515 1.538 2.286 2.281 2.286 3.050 3.056 0 5.342-0.769 5.342-2.281l7.628 2.281 12.175 0.769 7.628-1.538c0 1.538 1.541 1.538 4.572 2.307 1.515 0 2.286 0 2.286-0.769l4.572 0.769h2.286l5.342-0.769c0 1.512 1.515 3.050 4.572 3.050l22.089 0.743 4.572-0.743c0 0.743 2.286 1.512 6.884 3.025h7.628v-1.512l12.175 0.743c1.515 0 8.373 0.769 19.829 2.307 3.801 0 6.832 0 9.889-0.769 0.838 0.168 2.258 0.372 4.278 0.62-0.088 1.841-0.177 3.698-0.264 5.571-7.204-0.519-14.094-1.075-20.786-1.628v0.769c-3.031-0.769-5.317-1.538-7.603-1.538l-5.342 0.769-4.572-0.769c-1.515 0-2.286 0-2.286 0.769-25.145-1.512-38.861-3.050-41.917-3.050l-5.342 0.769c-1.515 0-2.286 0-2.286-0.769-12.2 0-20.573 0.769-25.145 0.769l-14.486-1.512h-7.603l-3.056 3.794h2.286l12.175-0.769c0 1.538 2.286 1.538 7.628 2.281 3.056-0.743 6.113-0.743 7.628-0.743 0 0.743 0.745 0.743 2.286 0.743l-2.286 1.538v5.306l9.914-2.281c0 2.281 3.801 3.819 12.175 3.819h5.342v-3.819c-0.771-1.512-2.26-1.512-4.572-2.281v1.538h-4.572c-3.031 0-5.342-0.769-4.572-2.281v-1.538c0-1.512 1.541-1.512 5.342-1.512h4.572v1.512l9.914-0.743 9.914 2.281c2.26-0.769 6.087-0.769 12.175-0.769 0 0.769 0.745 1.512 2.286 3.050h-9.914v0.743l-12.175-3.025v1.512h4.572l-9.914 3.050v0.743c0 1.538 1.515 1.538 4.572 1.538l4.572-0.769c3.056 0.769 5.342 0.769 7.628 1.512 0-1.512 1.541-1.512 5.317-1.512 0 2.281 3.801 3.819 12.226 3.819v-0.769c12.175 2.281 19.032 3.025 22.089 3.794 0-1.512 1.515-1.512 5.342-1.512h2.286c0 1.916 4.819 3.832 15.401 5.292-0.056 1.404-0.111 2.815-0.165 4.233-2.794-0.15-5.843-0.285-9.148-0.4h-2.312l-5.317 0.743c0-0.743-0.745-0.743-2.286-0.743v1.512h-7.603c-3.082 0-4.598-0.769-4.598-3.025-3.031 0-5.317 0.743-5.317 3.025h-2.286c0-3.025-9.169-4.563-26.686-5.306v1.512l-5.317-0.769h-7.628c-1.541 0-2.286 0-2.286 0.769l-4.598-0.769h-2.286c0 0.769 3.082 2.281 9.914 3.794 1.541 0 2.286 0 2.286-0.743 3.827 0.743 16.002 2.281 37.346 3.794v-0.769c18.288 1.538 27.457 3.050 26.661 4.588l11.222-0.706c-0.41 11.716-0.732 23.869-0.897 36.341h-7.263c-1.515 0-1.515 0.769-2.286 0.769l-1.515-0.769c0 0-3.827 0-6.087 0.769-19.058-1.538-30.488-3.050-54.118-5.331l-3.801 3.050c-3.056 0.743-6.884 0.743-9.914 0-3.056-0.769-6.087-1.538-7.628-1.538-2.286 0-3.056 0-4.572 0.769-3.056-0.769-9.889-1.512-9.889-1.512l-3.827 3.794c0 2.281 24.375 10.663 29.717 9.894 1.541 0 3.056-0.769 4.572-0.769 0.771 0.769 0.771 0.769 1.541 0.769 3.031 2.281 4.546 3.050 8.373 5.331 0.771 0.743 13.716 7.613 13.716 7.613s-0.771 0-0.771 0.743c-6.858-0.743-10.659-0.743-19.803-2.281-9.144 0-10.685 5.331-10.685 7.613 0 0.769 0.771 3.050-0.745 3.794 3.801 0 5.342 0 8.373-0.743-1.515 0.743-0.745 1.512 0.771 1.512 3.056 0 8.399-1.512 12.945-1.512 4.572 0 9.914 2.256 12.2 2.256 1.515 0 3.801-0.743 4.572-0.743v2.281c0 0 3.056-0.769 3.801-2.281l3.056 1.512h6.858c2.286-0.769 3.056-0.769 4.598-1.512 0 0.743 0.745 1.512 2.26 1.512 0.771 0 1.541 0 1.541-0.769 1.515 0 1.515 0.769 3.031 0.769h1.541c1.515 0 2.286-0.769 3.801-0.769 0 1.538 0.745 2.307 3.031 2.307 4.91 0 8.329 0.48 12.64 0.668 0.039 2.4 0.085 4.808 0.14 7.221-4.145-0.796-7.413-1.565-8.182-1.815-1.541 0-2.312 0-3.801 0.743-1.541 0-1.541-0.743-1.541-0.743-1.541-1.512-15.257 0-17.543 0.743-3.801-0.743-6.087-0.743-9.889-1.512h-4.572c-1.541 1.512-1.541 1.512-3.056 3.050h10.685c0 0.769 2.286 2.281 5.317 1.538 2.286 0 5.342-0.769 5.342-0.769s0.771 0.769 1.515 0.769c-0.745 0.743-0.745 0.743-1.515 1.512v4.563c3.056-0.769 4.572-1.538 6.832-2.281 0 2.281 3.082 3.050 9.169 3.794h3.801v-3.050c0-0.743-1.515-1.512-3.801-1.512v1.512h-3.827c-2.26 0-3.801-0.743-3.801-1.512v-1.512c0-0.769 1.541-1.512 3.801-1.512h3.827v1.512c3.056 0 4.572 0 6.858-0.769 1.908 0.48 3.215 0.95 4.484 1.422 0.011 0.397 0.021 0.794 0.032 1.191-0.683-0.319-1.401-0.68-2.23-1.101v1.538h2.242c0.007 0.235 0.013 0.47 0.020 0.705-2.115 0.86-3.596 1.092-6.064 2.345v0.743c0 0.769 1.515 1.538 3.801 1.538 0.982 0 1.641-0.312 2.388-0.539 0.097 2.958 0.207 5.923 0.331 8.895h-3.49c-1.515 0-1.515 0-1.515 0.743-1.515-0.743-2.286-0.743-3.801-0.743h-1.541c0 0.743 3.056 3.025 6.858 3.794 0.771 0 1.541-0.769 1.541-0.769 0.18 0 0.901 0.125 2.095 0.336 6.398 141.396 44.929 295.772 202.137 318.452 10.685 1.512 21.344 2.281 31.258 2.281l-1.541-0.769c16.27 0 31.47-1.975 45.648-5.611 40.518-4.227 74.855-21.269 102.979-50.656 60.231-62.363 72.405-162.764 70.119-211.439-2.286-55.519-19.803-95.070-33.519-118.651-15.257-25.863-30.513-38.781-31.258-39.55l-26.661-22.813 9.889 33.45c7.863 27.465 23.058 98.813 10.679 141.959-8.599 15.087-23.111 25.787-46.473 27.654h-6.139c-6.852 0-13-1.032-18.491-3.011-1.551-1.606-3.002-3.389-4.353-5.35-5.814-8.469-9.766-19.807-12.122-33.474 1.641 0.39 2.833 0.669 3.746 0.669 6.858 0 9.914-1.538 9.144-3.050-0.771-0.743-1.541-1.512-3.056-1.512-3.611-1.137-7.268-2.181-10.878-3.118-3.421-26.932-1.436-61.668 4.217-100.695l2.084-0.311c3.056 0.795 28.972 1.538 30.488 1.538 7.628-0.743 12.2-1.538 12.945-3.050v-1.512c-6.727-3.356-31.95-5.549-44.025-6.525 0.9-5.718 1.873-11.519 2.914-17.392l9.108-2.689 4.572 0.743v-2.281c0-1.461-4.066-2.922-12.19-3.979 3.918-21.101 8.663-43.055 14.001-65.391 4.686-0.7 7.399-1.464 8.119-2.877v-1.512c-1.978-1.414-4.059-2.512-6.244-3.373 0.934-3.826 1.884-7.662 2.85-11.506l5.68-3.397v-1.512l-1.541-1.512 15.257-5.331 3.801 0.769v-2.281c0-2.125-5.82-3.576-18.666-4.393 28.76-109.907 68.532-222.773 92.605-284.617l12.175-31.963-30.084 21.444c7.342-18.893 11.806-29.795 11.806-29.795l-125.955 94.965-106.502-235.69 2.286 0.769-44.716 85.653-100.11 150.117-8.322-7.671-109.041-137.592 0.796 1.512c3.647 5.782 18.397 29.941 35.906 69.406l-38.978-35.925c0 0 58.139 94.1 82.222 274.001l-22.765-2.478v-0.769l2.286 7.613c-2.286 0.769-4.572 0.769-7.628 0.769-2.286-0.769-3.827-0.769-5.317-0.769l-3.827 0.769c-2.286-0.769-4.572-0.769-7.628-1.538 0 0.769-1.515 2.281-5.342 3.794 1.541 5.331 4.572 8.382 10.685 8.382 2.286-0.769 4.572-0.769 5.342-0.769v0.769l-2.286 4.563c0 0.769 1.515 2.281 5.342 6.844-1.541 0-1.541 0-1.541 0.769l-23.63-2.307c-11.404 0-16.746 2.307-16.746 6.844 2.286 1.538 3.801 3.050 3.801 3.819l9.144-0.769c0 0.769 1.515 1.538 3.801 1.538 3.827 0 8.373-0.769 14.486-1.538 11.43 2.281 18.313 3.050 22.089 3.050 2.312-0.769 4.598-0.769 5.342-0.769 0.771 0.769 1.541 1.538 1.541 2.281 2.26 0 3.801-0.743 3.801-2.281l5.342 1.538 8.329 0.679c0.258 2.649 0.509 5.315 0.751 7.997l-7.565-1.089h-5.317l-2.312 3.050h10.685c0 0.73 1.365 1.46 4.777 1.532zM662.349 453.252c-2.039 8.64-3.947 17.080-5.721 25.318-0.509-0.005-1.024-0.008-1.545-0.008l-22.089-6.844c-99.574-8.111-169.873-13.342-210.922-15.065 0.532-11.496 0.965-21.885 1.121-31.033 1.131 0.612 2.723 1.29 4.775 1.969 1.515 0 1.515 0 1.515-0.743 2.286 0.743 11.455 2.281 27.457 3.794v-0.769c13.716 1.538 19.803 3.050 19.803 3.819l9.169-0.769h1.49v3.050h3.827c0-1.538 1.515-2.281 3.801-2.281h1.541v0.743l-2.286 1.538c5.317 0 9.889 0.743 14.461 1.512l3.827-0.769c4.546 1.538 9.118 2.281 14.461 2.281h1.541c2.286 0 3.801-0.743 3.801-2.281h1.541l9.118 3.819c0-1.538 1.541-2.281 3.827-2.281h5.342l1.515 3.025c1.515 0 1.515 0 1.515-0.743 6.858 0.743 16.772 2.281 28.972 5.331l9.144-0.769 7.628 2.281c0-1.512 1.515-2.281 3.801-2.281 0 2.281 0.771 3.025 3.801 3.025 2.312 0 3.801 0 3.801-1.512l3.827 0.769h1.515c0-1.512 1.541-2.281 3.827-2.281h1.515v3.025l9.144 1.538c1.515 0 1.515 0 1.515-0.769 10.648 1.772 20.197 3.208 28.621 4.361zM664.948 442.423c-0.768-0.13-1.517-0.256-2.247-0.376l-7.628 0.769c-10.659-1.538-16.772-2.281-18.262-2.281-2.286 0.743-4.598 0.743-5.342 0.743 0-0.743-13.741-3.025-41.917-6.075v-1.512c3.801 0 7.628 0 12.945-0.769 0 1.512 5.342 2.281 16.027 3.050l3.776-0.769c2.286 0.769 3.827 0.769 5.342 0.769v-0.769c12.945 1.512 20.573 2.281 22.089 3.050 2.286-0.769 3.827-0.769 5.342-0.769 1.541 0.769 1.541 1.512 1.541 2.281h3.827l-1.541-1.512 3.801-0.769h3.46c-0.409 1.653-0.813 3.299-1.213 4.939zM671.853 415.134c-0.008-0.171-0.008-0.328-0.008-0.462h-12.945c0-0.769-3.827-2.281-10.685-3.819v-0.743c2.312 0 3.801 0 3.801-1.512h-3.801v-1.538l3.801 0.769h3.827c3.801 0 9.914-0.769 16.772-3.050h1.515c0.138 0.069 0.274 0.137 0.411 0.204-0.913 3.41-1.809 6.794-2.688 10.152zM675.518 401.349c-9.863-0.988-17.431-3.054-22.705-5.696h-3.827v2.281h-1.515c-3.056-3.050-7.628-4.563-12.945-4.563v-1.512c4.546 0 7.603 0 7.603-1.538l5.342 1.538h20.573c2.286 0.743 4.572 0.743 6.858 0.743 1.137-0.34 2.228-0.672 3.272-0.994-0.9 3.27-1.785 6.517-2.656 9.741zM681.416 379.963c-1.985-0.182-4.152-0.279-6.515-0.279l-16.002-6.1c-76.232-7.587-129.58-12.15-159.297-13.662-2.286-0.769-3.827-0.769-5.317-0.769v0.769l-3.827-0.769-22.089-0.769h-20.599c-2.286-0.769-5.317-0.769-9.118-1.512-1.541 0-1.541 0-1.541 0.743l-9.144-1.512h-7.628c-1.515 0-1.515 0-1.515 0.769-0.496 0-0.829 0-1.054-0.027-9.508-73.984-24.808-133.66-40.091-179.477l35.060 32.707 21.318 19.762 16.002-23.556 106.694-159.739 92.979 163.533 13.741 24.351 22.089-16.738 65.547-49.444c-17.517 47.137-39.632 110.269-59.46 176.452-3.587 12.022-7 23.78-10.234 35.269zM422.144 396.409l16.509 0.756 3.801-0.769c0 0.769 1.515 1.538 5.317 2.307h5.342v-1.538l9.169 0.769c1.49 0 6.087 0.769 14.461 2.281 3.031 0 5.317 0 7.628-0.769 2.286 0.769 14.461 2.281 36.575 4.563 0-1.512 1.515-2.281 3.801-2.281h1.541l6.832 3.050c1.541 0 1.541 0 1.541-0.769l12.971 3.050c0-1.512 1.49-2.281 3.801-2.281 1.515 0.769 1.515 2.281 1.515 3.050l9.144-0.769c0 0.769 0.771 0.769 1.541 0.769 1.515-0.769 2.286-2.281 2.286-3.819h3.801c0 3.050 5.342 5.331 16.002 5.331 3.031 0.769 10.659 1.512 23.63 3.794v-1.512h5.342c0 1.512 2.286 2.281 6.858 3.819h3.801l3.827-0.769v2.281c-6.113 0-15.257-0.769-27.457-2.281v0.769c-2.286-0.769-3.801-0.769-5.342-0.769-8.373-0.769-21.318-1.538-38.090-3.050v2.281h-1.541c0-1.512-0.745-2.281-3.801-2.281l-18.288-0.769c-3.056 0-5.342-0.743-7.628-1.512-1.49 0-1.49 0-1.49 0.769l-9.169-1.512c-17.543-0.769-32.748-2.281-45.719-3.819v0.769c-2.286-0.769-4.598-0.769-5.342-0.769l-3.827 0.769-3.801-0.769c-1.541 0-1.541 0-1.541 0.769-18.288-1.538-28.947-2.281-31.207-3.050l-2.207 0.444c-0.032-0.401-0.066-0.798-0.102-1.189-0.158-1.788-0.319-3.568-0.484-5.341zM423.024 407.635l5.714-0.576 7.628 2.281c1.49-0.743 4.572-0.743 9.118-0.743 0 0.743 0.771 1.512 1.541 2.256h-7.628v0.769l-9.144-3.025v1.512h3.801l-7.603 3.025v0.769c0 0.769 1.515 1.538 3.801 1.538l3.801-0.769c2.312 0.769 4.598 0.769 5.342 0.769 0-0.769 1.541-1.538 3.801-1.538 0 2.281 3.056 3.050 9.169 3.794v-0.743c9.118 2.281 14.461 3.025 16.002 3.025 0-0.743 1.515-1.512 3.776-1.512h1.541c0 2.281 5.342 4.563 16.002 5.331h1.541v-1.538l10.685 0.769 3.776-0.769c0 1.538 1.541 2.307 3.827 2.307h5.342l7.603-2.307c0 2.307 2.286 3.819 6.858 4.588v2.281c-1.515 0-3.031 0-5.317 0.743-2.312-0.743-4.598-0.743-7.628-0.743v0.743c-2.286-0.743-3.801-0.743-5.342-0.743h-9.118c0-1.538-7.628-3.050-23.63-3.819h-1.541l-3.801 0.769c0-0.769-0.796-0.769-1.541-0.769v1.538h-5.342c-2.286 0-3.776-0.769-3.776-2.281-2.286 0-3.827 0.743-3.827 3.025h-1.515c0-2.281-6.884-4.563-19.829-4.563v1.538l-3.801-0.769h-5.342c-1.515 0-1.515 0-1.515 0.769l-3.233-0.65c0.047-3.534 0.050-6.874-0.002-10.013h1.72v-3.050c0-0.498-0.691-1.007-1.833-1.289-0.024-0.653-0.050-1.296-0.080-1.929zM643.244 555.525c-1.566 13.092-2.659 25.396-3.269 36.939-4.068-0.453-8.849-0.678-13.859-0.678-7.603-2.281-11.404-3.025-16.746-5.331-43.459-4.563-94.52-4.563-131.095-12.919-1.515-0.769-3.801-1.512-5.342-1.512-0.771 0-0.771 0.743-0.771 0.743-1.515-0.743-2.286-0.743-3.031-1.512-10.659-0.769-16.002-1.512-27.457-2.281-5.802-0.733-15.756-0.069-23.926-0.671 0.139-11.827 0.425-23.363 0.798-34.492 3.26 0.286 6.426 0.663 9.408 1.039l4.598-0.769c6.087 1.538 12.945 2.281 19.803 2.281h2.286c3.031 0 4.572-0.743 5.342-2.281h2.286l12.2 3.794c0-1.512 1.515-2.256 5.317-2.256h7.628l2.286 3.768c1.515 0 2.286 0 2.286-0.743 9.914 0.743 22.859 2.281 39.606 6.075l12.226-0.743 9.914 2.281c0-1.538 1.49-2.281 5.342-2.281 0 2.281 1.49 3.794 4.546 3.794s4.572-0.769 4.572-1.512l5.342 0.743h2.286c0-1.512 1.541-2.281 5.317-2.281h2.312v3.794l12.2 1.538c1.515 0 2.26 0 2.26-0.769 7.915 0.998 22.889 3.905 45.335 6.244zM644.797 543.533c-2.272-0.349-4.433-0.712-6.486-1.096l-9.914 0.769c-13.69-1.538-22.089-2.281-24.375-3.050-3.031 0.769-6.113 0.769-7.628 0.769 0-0.769-19.032-3.050-56.378-6.844v-1.538c4.546 0 10.659 0 17.517-0.743 0 1.512 7.603 2.281 22.115 3.819l5.317-0.769c3.056 0.769 5.342 0.769 7.603 1.512v-0.743c17.543 1.512 27.457 3.025 29.743 3.768 3.056-0.743 5.342-0.743 7.628-0.743 1.515 1.512 2.26 2.281 2.26 3.025h4.598l-2.286-1.512 5.317-0.769h5.575c-0.207 1.39-0.408 2.772-0.604 4.146zM649.263 515.831h-15.524c0-1.538-4.572-2.281-14.461-3.794v-0.769c3.031 0 5.317-0.769 5.317-1.538h-5.317v-1.512l5.317 0.769h4.572c5.189 0 12.51-0.725 22.011-3.562-0.666 3.511-1.304 6.979-1.915 10.406zM651.939 501.455c-11.705-1.11-20.554-3.162-26.573-6.155h-5.342v2.281h-2.286c-3.827-3.050-9.914-4.588-17.543-5.331v-1.512c6.884 0 9.914 0 9.914-1.538l7.628 2.281h26.686c2.85 0.723 5.723 0.766 9.216 1.387-0.585 2.889-1.152 5.752-1.701 8.587zM420.055 497.736c6.001 0.61 12.948 1.313 20.869 2.126 0-1.538 1.541-2.281 5.317-2.281h2.312l9.914 3.025c1.515 0 2.286 0 2.286-0.743l17.517 3.025c0-1.512 1.515-2.281 5.342-2.281 1.515 0.769 2.286 2.281 2.286 3.819l12.175-0.769c0 0.769 0.771 0.769 2.312 0.769 1.515-0.769 2.26-2.281 3.031-4.563h4.572c0 3.794 6.858 5.306 22.115 6.075 4.572 0.769 15.257 2.281 32.003 3.794v-1.512h7.628c0 1.512 3.031 2.281 9.914 3.819h5.317l4.572-0.769v2.281c-8.399 0-20.573-0.769-37.346-2.281v0.769c-3.056-0.769-5.342-0.769-7.628-1.538-12.175-0.769-28.947-1.512-51.806-3.794v2.281h-2.286c0-1.538-1.541-3.050-4.572-3.050l-25.145-0.769c-3.827 0-6.884-0.743-9.914-1.512-1.541 0-2.286 0-2.286 0.769l-12.2-1.538c-5.717-0.18-11.21-0.406-16.512-0.667 0.071-1.506 0.143-3.001 0.216-4.483zM419.108 518.705l3.502-0.592c0 1.512 1.541 3.050 4.598 3.050h7.628l9.914-2.281c0 3.025 3.031 4.537 9.889 4.537v3.050c-1.515 0-4.572 0-7.628 0.769-3.056-0.769-6.087-0.769-9.889-1.538v0.769c-3.056-0.769-5.342-0.769-7.628-0.769l-10.685 0.673c0.096-2.581 0.197-5.137 0.3-7.668zM643.839 661.854c3.341 15.745 8.587 28.857 15.808 39.536 13.716 20.557 35.060 31.963 61.72 31.963h8.425c27.406-2.281 49.52-15.225 63.236-35.757 12.945-19.019 17.517-42.601 17.517-66.182 3.827 12.201 6.113 26.632 6.884 43.37 2.286 50.188-19.829 146.026-76.232 205.365-31.233 32.681-69.349 49.419-113.552 49.419l-0.745 0.769c-8.373 0-18.313-0.769-27.457-2.281-86.121-12.944-140.239-69.976-165.384-175.683-8.856-37.203-13.303-77.22-15.207-116.472 12.938 1.537 19.792 3.049 19.792 3.792 3.827 0 5.317 0 9.144-0.743h1.515v3.050h3.827c0-1.538 1.515-2.307 3.801-2.307h1.541v0.769c-0.796 0.769-1.541 0.769-1.541 1.538 4.572 0 9.914 0.743 14.486 1.512 1.515 0 2.26-0.769 3.801-0.769 4.572 1.538 9.144 2.281 14.461 2.281h1.541c2.286 0 3.056-0.743 3.801-2.281h1.541c3.031 1.538 4.572 2.281 8.373 3.050 0-1.512 0.745-2.281 3.056-2.281h4.572c0.745 1.512 0.745 2.281 1.541 3.050 0.745 0 1.515-0.769 1.515-0.769 0.771-0.769 13.69 1.512 25.89 4.563 3.056 0 4.598-0.769 7.628-0.769 3.056 0.769 4.598 1.538 7.628 2.307-1.541-2.307 0-3.819 1.515-3.076 1.541 0.769 3.827 3.819 6.113 3.819s3.056-0.743 2.286-1.512c1.515 0.769 2.286 0.769 4.572 1.512h1.515c-1.515-2.281-1.515-3.050 0.771-3.050h1.541c1.49 1.538 2.286 2.307 3.031 3.819 3.801 0.743 6.087 0.743 9.914 1.512 1.515 0 1.515-0.769 1.515-0.769 0.508-1.032 27.656 3.955 54.299 7.705zM642.019 651.808c-13.963-1.994-25.112-3.814-33.446-6.015-2.286 0-3.801 0-6.087 0.769-12.2-2.281-18.288-3.819-19.803-3.050-1.541 0-3.827 0.769-4.572 0.769-0.745-0.769-17.543-3.819-38.887-5.331 0-0.769 0-0.769-0.745-1.512 2.286 0 8.373-2.307 9.144-2.307 0 0 4.572 2.307 14.486 2.307 1.515 0 1.515-0.769 3.031-0.769 2.312 0.769 4.598 0.769 5.342 0.769 0-0.769 0-0.769-0.745-0.769 12.945 1.512 20.548 3.794 22.089 4.563 0.745 0 3.056-0.769 3.801-0.769 1.541 0.769 3.827 2.281 4.572 3.050h3.056c-1.515-0.769-2.286-1.512-3.801-2.281 0.745 0 1.515-0.769 2.286-0.769 1.515 0 3.031 0 4.546 0.769 2.286 0.769 4.598 1.512 6.113 2.281h25.916c0.948 0.192 1.85 0.382 2.681 0.559 0.299 2.639 0.639 5.218 1.022 7.737zM640.736 641.648c-0.616-0.551-1.136-1.16-1.65-1.956-1.541-0.743-2.286-1.512-3.056-1.512-1.515-0.743-2.286-1.512-3.827-1.512 1.507-1.487 3.975-2.332 7.831-3.372 0.191 2.847 0.425 5.631 0.703 8.352zM639.644 625.997c-1.962-0.761-3.165-0.761-4.384-0.761-1.515 0-2.26 0-4.572 0.769-2.286-0.769-3.801-0.769-6.113-0.769h-7.603c0.771-0.743 2.286-1.512 4.572-2.256h-11.43c1.515-0.769 0-1.512-5.342-3.050 0 0 0.771 0 0.771-0.743 2.286 0 3.827 0 4.572-0.769h-3.827c0.796-0.769 0.796-0.769 0.796-1.538 1.49 0 1.49 0.769 3.031 0.769h3.056c3.801 0 10.659-0.769 17.517-3.050h1.515c3.592 2.051 5.465 3.070 7.228 3.518 0.038 2.676 0.109 5.303 0.213 7.88zM639.409 610.437c-0.555 0.187-1.116 0.368-1.864 0.368-12.175-0.769-21.344-3.050-28.972-5.331h-3.801c0.771 0.769 0.771 1.538 1.515 2.281h-1.515c-4.572-2.281-9.889-3.794-15.231-3.794-0.771-0.769-0.771-0.769-0.771-1.512 4.598 0 6.858 0 6.858-0.769 3.056 0.769 3.827 0.769 6.858 1.512h3.801c4.598 0 11.455-0.743 16.798 0 2.286 0 5.317 1.538 7.603 0.769 3.135-0.415 6.157-1.175 8.891-2.060-0.089 2.896-0.145 5.741-0.168 8.535zM417.813 603.512c0.744 0.109 1.558 0.254 2.516 0.449 1.541 0 6.139 1.512 14.512 2.281 2.286 0 5.317-0.769 6.832 0 2.286 0 32.799 6.844 35.83 4.563 0 0 1.515-2.281 3.801-1.538h1.541c3.056 0.769 4.572 1.538 7.628 2.307 1.515 0 1.515 0 1.515-0.769 5.317 0.769 7.603 1.538 12.2 3.050 0-1.512 2.286-2.281 3.801-2.281 0.771 0 1.515 1.512 1.515 3.025 3.801 0 5.342 0 9.144-0.743 0 0.743 0.771 1.512 1.541 0.743 0.745 0 2.286-2.256 1.515-3.794h3.827c0 3.050 6.062 3.794 15.976 5.331 3.056 0 9.94 1.512 20.599 3.050 0.745-0.769 0.745-0.769 1.515-1.538h5.342c-0.771 0.769 0.771 1.538 3.801 3.050h3.801c1.541 0 2.286 0 3.827-0.769-0.771 0.769-1.541 0.769-2.286 1.538-5.342 0-13.716-0.769-23.63-1.538l-0.745 0.769c-1.541-0.769-3.082-0.769-4.598-0.769-7.628 0-18.288-0.743-34.289-2.281 0 0.769 0 1.538-0.745 2.281h-1.541c0-1.512-0.745-2.281-3.056-2.281-6.858 0-10.659-0.769-17.517-0.769-2.312 0-5.342-0.743-6.858-1.512-0.771 0-1.515 0-1.515 0.769-3.827-0.769-5.342-0.769-9.144-1.538-16.798-0.743-32.003-2.256-44.229-3.794v0.769c-2.286-0.769-3.776-0.769-5.317-0.769s-2.312 0.769-3.801 0.769c-1.304-0.651-2.038-0.751-3.167-0.766-0.057-2.438-0.105-4.871-0.145-7.296zM418.357 624.248c6.040 1.515 10.527 2.37 11.142 1.756 0 0 1.515-1.512 3.801-1.512h1.541c0 2.281 5.317 4.563 16.002 5.331h1.515v-1.512c4.572 0 6.113 0 10.659 0.743 1.541 0 2.286 0 3.827-0.743 0 1.512 0.745 2.256 3.801 2.256h5.342c3.031-0.743 4.572-1.512 6.858-2.256 0 2.256 2.286 3.794 6.832 4.537v2.281c-1.49 0-3.776 0.769-5.317 0.769-1.515 0-4.572-0.769-6.858-0.769v0.769c-2.286-0.769-3.827-0.769-5.342-0.769h-9.144c0-1.512-7.628-3.025-22.859-3.794h-1.515c-1.515 0-2.286 0.769-3.801 0.769 0-0.769-0.796-0.769-1.541-0.769v1.512h-5.342c-2.286 0-3.031-2.281-3.031-2.281-0.771-0.743-3.801 0.769-3.801 3.050h-1.541c0-0.503-0.296-0.969-0.905-1.398-0.119-2.662-0.226-5.319-0.322-7.972z" />
<glyph unicode="&#xe911;" glyph-name="star" d="M433.778 863.641c-3.255 17.901 27.258 35.395 91.539 52.482s118.39 25.631 162.329 25.631c19.528 0 28.479-3.255 26.851-9.764l-192.842-380.801c-1.627-4.882-6.103-7.323-13.426-7.323s-10.985 2.441-10.985 7.323l-63.467 312.452zM123.766 543.866c-14.646 3.255-21.969 27.665-21.969 73.231s5.289 94.793 15.867 147.683c10.578 52.889 19.935 75.265 28.072 67.128l305.129-302.688c3.255-3.255 3.662-8.137 1.221-14.646s-5.289-8.95-8.544-7.323l-319.775 36.616zM555.829 490.163c-3.255 0-6.103 3.255-8.544 9.764s-1.221 10.578 3.662 12.205l275.837 158.667c14.646 6.509 36.209-10.171 64.687-50.041s53.296-82.995 74.452-129.375c21.156-46.38 26.851-68.756 17.087-67.128l-427.181 65.908zM316.608 145.977c-21.156 0-53.296 8.544-96.421 25.631s-81.368 35.802-114.729 56.144c-33.361 20.342-45.973 32.14-37.836 35.395l385.683 197.724c4.882 0 9.357-2.034 13.426-6.103s5.289-7.73 3.662-10.985l-134.257-290.483c-1.627-4.882-8.137-7.323-19.528-7.323zM511.891 434.019v2.441c0 3.255 3.255 6.916 9.764 10.985s10.578 5.289 12.205 3.662l234.339-217.252c11.392-9.764 2.441-34.581-26.851-74.452s-62.653-76.486-100.082-109.847c-37.429-33.361-56.957-45.159-58.585-35.395l-70.79 419.858z" />
<glyph unicode="&#xe912;" glyph-name="tripadviser" d="M627.505 741.873c28.58-4.041 56.568-11.22 84.213-19.718 48.278-14.867 93.833-35.52 136.677-62.313 2.982-1.849 6.961-3.023 10.472-3.023 50.335-0.208 100.638-0.135 150.91-0.177 4.052 0 8.083-0.426 12.124-0.655 0-0.987 0.145-1.403-0.021-1.621-2.348-3.626-4.727-7.179-7.085-10.784-17.079-26.191-31.666-53.566-40.268-83.839-0.945-3.241-1.132-5.974 1.070-9.163 44.797-64.329 59.093-134.953 40.372-211.083-16.415-66.77-54.688-118.829-112.835-155.679-41.566-26.357-87.486-38.907-136.553-39.177-20.601-0.125-41.12 2.649-61.253 7.864-49.067 12.737-91.122 37.182-125.769 74.229-4.561 4.862-8.872 9.942-13.745 15.428-18.326-27.313-36.361-54.179-54.823-81.74-18.399 27.489-36.185 54.095-53.929 80.598-1.226-0.644-1.579-0.717-1.818-0.945-0.405-0.332-0.748-0.738-1.080-1.122-41.909-49.503-94.644-79.85-158.899-90-35.728-5.662-71.133-3.626-105.843 5.942-49.192 13.516-90.997 39.468-124.772 77.751-33.016 37.442-53.534 80.909-61.253 130.34-8.82 46.117 1.932 90.602 4.602 101.396 7.771 31.375 21.318 60.183 39.914 86.675 1.309 1.88 1.766 5.205 1.143 7.449-7.584 27.811-20.653 53.108-35.956 77.336-3.885 6.161-8.54 11.864-12.841 17.776 0 0.665 0 1.371 0 2.057 0.862-0.114 1.714-0.27 2.556-0.27 51.488-0.021 102.965-0.042 154.453 0.062 2.244 0 4.737 0.925 6.649 2.151 36.174 23.209 74.718 41.597 115.214 55.913 29.214 10.306 59.020 18.357 89.428 24.237 29.442 5.693 59.041 9.714 88.95 11.677 72.941 5.579 131.223-2.14 169.995-7.574zM562.958 401.831c0-113.063 91.735-205.421 204.393-204.985 113.084 0.405 204.403 90.176 204.32 204.486-0.083 117.801-95.641 206.356-208.704 204.071-111.619-2.338-198.99-92.306-200.009-203.572zM256.369 606.162c-109.978 0.956-205.868-90.831-203.946-207.748 1.787-109.022 91.652-201.463 206.242-200.476 112.035 0.966 202.086 92.441 202.294 203.229 0.166 113.822-90.987 204.995-204.59 204.995zM266.508 659.499c62.116-3.792 116.699-25.443 162.806-67.373 46.013-41.847 72.972-94.051 82.769-155.44 10.088 60.661 36.33 112.367 81.481 153.809 45.234 41.473 99.069 63.238 160.177 67.84-72.505 32.237-148.978 45.93-227.674 47.446-89.459 1.756-176.467-11.428-259.558-46.283zM766.935 530.821c69.97 0.125 126.642-56.256 126.642-126.153 0-70.167-55.706-124.418-121.426-126.912-73.398-2.815-132.127 55.654-132.106 126.6 0.062 71.746 59.207 127.649 126.891 126.465zM849.465 404.356c-0.031 45.618-36.912 82.675-82.198 82.675-45.815 0-83.112-36.87-83.309-82.343-0.166-45.275 37.328-82.946 82.707-83.070 45.473-0.177 82.821 37.213 82.8 82.738zM253.668 530.821c69.928 0.073 126.683-56.402 126.517-126.278-0.208-70.749-55.965-123.795-120.533-126.735-73.689-3.376-133.145 55.363-133.010 126.683 0.145 72.255 59.695 127.535 127.026 126.33zM336.104 404.636c-0.145 45.888-37.244 82.468-83.569 82.385-44.693-0.083-82.125-37.795-82.031-82.644 0.114-45.369 37.515-82.675 83.029-82.8 45.244-0.104 82.686 37.567 82.572 83.060zM766.997 446.338c23.188 0.021 42.2-19.001 41.982-42.055-0.218-23.105-18.918-41.826-41.722-41.836-23.489 0-42.356 18.555-42.304 41.546 0.042 23.853 18.378 42.325 42.044 42.345zM253.45 446.712c23.541 0.021 42.46-18.783 42.553-42.252 0.094-23.261-19.001-42.366-42.429-42.429-23.988-0.052-42.491 18.482-42.47 42.605 0 23.666 18.461 42.044 42.345 42.075z" />
<glyph unicode="&#xe913;" glyph-name="trustyou" d="M819.195 572.84v-203.998h-142.842v203.998l-199.385 343.899h162.108l108.906-222.424 108.91 222.424h161.689zM3.629 916.741v-122.732h154.151v-425.167h142.836v424.748h154.151v122.732h-451.138zM876.809 40.21h-155.435l-66.615-58.001v280.049h222.050zM599.38 40.21h-155.432l-66.613-58.001v280.049h222.045zM321.952 40.21h-155.433l-66.615-58.001v280.049h222.049z" />
<glyph unicode="&#xe914;" glyph-name="twitter" d="M1020.846 774.303c-37.262-16.532-77.325-27.705-119.364-32.743 42.91 25.737 75.852 66.467 91.368 114.99-40.155-23.826-84.623-41.114-131.991-50.426-37.899 40.389-91.928 65.631-151.708 65.631-114.802 0-207.846-93.056-207.846-207.846 0-16.298 1.819-32.163 5.383-47.368-172.756 8.656-325.914 91.433-428.431 217.17-17.891-30.686-28.142-66.383-28.142-104.481 0-72.123 36.679-135.728 92.469-173.020-34.066 1.063-66.122 10.421-94.153 25.998-0.027-0.875-0.027-1.738-0.027-2.605 0-100.721 71.651-184.715 166.732-203.822-17.426-4.746-35.789-7.267-54.742-7.267-13.409 0-26.408 1.266-39.119 3.71 26.469-82.574 103.211-142.676 194.188-144.36-71.198-55.755-160.804-88.966-258.196-88.966-16.766 0-33.322 0.99-49.593 2.897 92.020-58.978 201.266-93.382 318.658-93.382 382.309 0 591.349 316.721 591.349 591.407 0 9.009-0.2 17.956-0.587 26.865 40.592 29.328 75.833 65.926 103.714 107.616z" />
<glyph unicode="&#xe915;" glyph-name="world" d="M351.024 935.208c-40.917-50.661-74.297-118.568-97.985-200.488h-164.744c62.452 93.777 153.977 164.918 262.73 200.488zM316.568 734.72c37.687 119.646 97.985 204.8 165.821 225.28v-225.28h-165.821zM708.509 734.72h-165.821v225.28c67.836-20.48 128.135-105.634 165.821-225.28zM937.859 734.72h-164.744c-23.689 81.92-57.068 150.905-97.985 200.488 107.676-36.648 200.278-107.789 262.73-200.488zM87.218 161.28h164.744c23.689-81.92 57.068-150.905 97.985-200.488-107.676 36.648-200.278 107.789-262.73 200.488zM316.568 161.28h165.821v-225.28c-67.836 20.48-128.135 105.634-165.821 225.28zM542.688 161.28h165.821c-37.687-120.724-97.985-205.878-165.821-225.28v225.28zM674.053-39.208c40.917 50.661 74.297 118.568 97.985 200.488h164.744c-62.452-92.699-153.977-164.918-262.73-200.488zM236.887 674.358c-12.921-60.362-20.458-126.114-23.689-196.177h-213.199c4.307 70.063 22.612 136.893 51.685 196.177h185.203zM482.389 674.358h-1.077v-196.177h-206.738c2.154 70.063 10.768 135.815 24.766 196.177h183.049zM725.737 674.358c13.998-60.362 22.612-126.114 23.689-196.177h-206.738v196.177h183.049zM810.801 478.181c-2.154 70.063-9.691 135.815-23.689 196.177h185.203c29.073-59.284 47.377-126.114 51.685-196.177h-213.199zM214.275 417.819c2.154-70.063 9.691-135.815 23.689-196.177h-185.203c-29.073 60.362-47.377 126.114-51.685 196.177h213.199zM299.34 221.642c-13.998 60.362-22.612 126.114-23.689 196.177h206.738v-196.177h-183.049zM542.688 221.642h1.077v196.177h206.738c-2.154-70.063-10.768-135.815-24.766-196.177h-183.049zM787.113 221.642c13.998 60.362 21.535 126.114 23.689 196.177h213.199c-4.307-70.063-22.612-136.893-51.685-196.177h-185.203zM482.389 960v0zM542.688 960v0zM482.389-64v0zM542.688-64v0z" />
<glyph unicode="&#xe916;" glyph-name="youtube" d="M832 832h-640c-105.6 0-192-86.4-192-192v-384c0-105.6 86.4-192 192-192h640c105.6 0 192 86.4 192 192v384c0 105.6-86.4 192-192 192zM384 192v512l320-256-320-256z" />
<glyph unicode="&#xe917;" glyph-name="calendar" d="M691.563 850.055h-83.109v-83.109h83.109v83.109zM566.924 393.076h-83.109c-22.932 0-41.53-18.599-41.53-41.53s18.599-41.53 41.53-41.53h83.109c22.932 0 41.53 18.599 41.53 41.53 0.049 22.932-18.55 41.53-41.53 41.53zM525.394 683.885c22.932 0 41.53 18.599 41.53 41.53v166.218c0 22.932-18.599 41.53-41.53 41.53s-41.53-18.599-41.53-41.53v-166.218c0-22.932 18.599-41.53 41.53-41.53zM816.203 226.858h-83.109c-22.932 0-41.53-18.599-41.53-41.53s18.599-41.53 41.53-41.53h83.109c22.932 0 41.53 18.599 41.53 41.53 0.049 22.932-18.55 41.53-41.53 41.53zM816.203 393.076h-83.109c-22.932 0-41.53-18.599-41.53-41.53s18.599-41.53 41.53-41.53h83.109c22.932 0 41.53 18.599 41.53 41.53 0.049 22.932-18.55 41.53-41.53 41.53zM774.672 683.885c22.932 0 41.53 18.599 41.53 41.53v166.218c0 22.932-18.599 41.53-41.53 41.53s-41.53-18.599-41.53-41.53v-166.218c0-22.932 18.599-41.53 41.53-41.53zM733.142 476.137h83.109c22.932 0 41.53 18.599 41.53 41.53s-18.599 41.53-41.53 41.53h-83.109c-22.932 0-41.53-18.599-41.53-41.53-0.049-22.932 18.599-41.53 41.53-41.53zM483.863 476.137h83.109c22.932 0 41.53 18.599 41.53 41.53s-18.599 41.53-41.53 41.53h-83.109c-22.932 0-41.53-18.599-41.53-41.53-0.049-22.932 18.55-41.53 41.53-41.53zM317.645 226.858h-83.109c-22.932 0-41.53-18.599-41.53-41.53s18.599-41.53 41.53-41.53h83.109c22.932 0 41.53 18.599 41.53 41.53 0.049 22.932-18.599 41.53-41.53 41.53zM940.891 850.055h-83.109v-83.109h83.109v-747.837h-830.994v747.885h83.109v83.060h-83.109c-45.912 0-83.060-37.197-83.060-83.109v-747.837c0-45.912 37.197-83.109 83.060-83.109h830.946c45.912 0 83.109 37.197 83.109 83.109v747.885c0 45.863-37.197 83.060-83.060 83.060zM317.645 393.076h-83.109c-22.932 0-41.53-18.599-41.53-41.53s18.599-41.53 41.53-41.53h83.109c22.932 0 41.53 18.599 41.53 41.53 0.049 22.932-18.599 41.53-41.53 41.53zM442.284 850.055h-83.060v-83.109h83.109v83.109h-0.049zM566.924 226.858h-83.109c-22.932 0-41.53-18.599-41.53-41.53s18.599-41.53 41.53-41.53h83.109c22.932 0 41.53 18.599 41.53 41.53 0.049 22.932-18.55 41.53-41.53 41.53zM234.536 476.137h83.109c22.932 0 41.53 18.599 41.53 41.53s-18.599 41.53-41.53 41.53h-83.109c-22.932 0-41.53-18.599-41.53-41.53s18.599-41.53 41.53-41.53zM276.115 683.885c22.932 0 41.53 18.599 41.53 41.53v166.218c0 22.932-18.599 41.53-41.53 41.53s-41.579-18.599-41.579-41.53v-166.218c0-22.932 18.647-41.53 41.579-41.53z" />
<glyph unicode="&#xe918;" glyph-name="file" horiz-adv-x="737" d="M18.611 937.541v-943.252c0.001-11.759 10.7-22.457 22.458-22.458h673.752c11.759 0.001 22.457 10.699 22.458 22.458v726.684c0.045 5.979-237.94 239.071-243.754 239.026h-454.561c-11.040-1.041-20.401-11.369-20.353-22.458zM396.679 864.169v-254.633l247.891-1.134v-549.298h-530.128v805.065h282.237zM475.117 864.753l173.165-173.165h-173.165v173.165z" />
<glyph unicode="&#xe919;" glyph-name="AZZ" d="M1024 960v-1024h-1024v1024h1024zM237.11 618.283h-23.114l-145.729-311.711h41.826l31.92 68.242h156.076l29.498-68.242h44.467l-134.943 311.711zM654.342 618.667h-257.875v-36.957h207.059l-207.059-237.798v-36.957h272.892v36.957h-222.077l207.059 237.798v36.957zM944 618.667h-242.857v-36.957h192.042l-192.042-237.798v-36.957h242.857v36.957h-192.042l192.042 237.798v36.957zM225.003 560.608c1.027-5.87 4.329-16.877 9.906-33.020l8.805-24.875c3.375-8.805 6.824-17.317 10.346-25.536l28.177-65.38h-122.835l32.8 70.003c3.962 8.512 7.631 16.877 11.007 25.095 5.443 13.875 8.907 22.705 10.392 26.489l0.742 1.892c4.202 11.096 6.844 19.462 8.018 25.332z" />
</font>
</defs>
</svg>
